Skip to main content

Dub Apocalypse Live at Electric Haze on 2013-09-13

Audio Preview

etree
Dub Apocalypse Live at Electric Haze on 2013-09-13






Collection DubApocalypse
Band/Artist Dub Apocalypse
Venue Electric Haze
Location Worcester, MA

Source Schoeps MK22/MK4>Sonosax SX-R4
Lineage WAV>USB>Macbook Pro>Audacity(mixing)>Wave Editor(tracking,fades,resample(izotope)/dither(mbit+)to 16 bit/44.1k)>XAct(FLAC 8,ffp,fix sbe)
Taped by Andy Murray
Transferred by Andy Murray

Notes

Dub Apocalypse
2013-09-13
Electric Haze
Worcester, MA

mk4s were right of center at the soundboard
mk22s were on stage DFC

MK22s were 21cm/110 degrees
MK4s were DIN

Source:
Schoeps mk4>KC5>CMC6>Sonosax SX-R4 &
Schoeps mk22>Nbob actives>Naiant PFAs>Sonosax SX-R4
(24bit/48khz)

Lineage:
WAV>USB>Macbook Pro>Audacity(mixing)>Wave Editor(tracking,fades,resample(izotope)/dither(mbit+)to 16 bit/44.1k)>XAct(FLAC 8,ffp,fix sbe)

Taped by: Andy Murray
Transferred by: Andy Murray

Johnny Trama - Guitar
Van Martin - Guitar
Timo Shanko - Bass
Dana Colley - Saxophone
Nathan Sabanayagam - Drums

2 Sets

length expanded size cdr WAVE problems fmt ratio filename
12:21.16 130750076 B --- -- ----- wav 1.0000 dubapoc2013-09-13_mk22mk4mix_1644_d1t01.wav
9:53.71 104772236 B --- -- ----- wav 1.0000 dubapoc2013-09-13_mk22mk4mix_1644_d1t02.wav
9:15.36 97986716 B --- -- ----- wav 1.0000 dubapoc2013-09-13_mk22mk4mix_1644_d1t03.wav
9:28.05 100207004 B --- -- ----- wav 1.0000 dubapoc2013-09-13_mk22mk4mix_1644_d1t04.wav
8:31.20 90187484 B --- -- ----- wav 1.0000 dubapoc2013-09-13_mk22mk4mix_1644_d1t05.wav
7:55.40 83884124 B --- -- ----- wav 1.0000 dubapoc2013-09-13_mk22mk4mix_1644_d1t06.wav
9:22.11 99162716 B --- -- ----- wav 1.0000 dubapoc2013-09-13_mk22mk4mix_1644_d1t07.wav
10:48.22 114358988 B --- -- ----- wav 1.0000 dubapoc2013-09-13_mk22mk4mix_1644_d2t01.wav
6:23.29 67629452 B --- -- ----- wav 1.0000 dubapoc2013-09-13_mk22mk4mix_1644_d2t02.wav
6:15.29 66218252 B --- -- ----- wav 1.0000 dubapoc2013-09-13_mk22mk4mix_1644_d2t03.wav
8:57.42 94825628 B --- -- ----- wav 1.0000 dubapoc2013-09-13_mk22mk4mix_1644_d2t04.wav
7:06.18 75188780 B --- -- ----- wav 1.0000 dubapoc2013-09-13_mk22mk4mix_1644_d2t05.wav
8:01.21 84897836 B --- -- ----- wav 1.0000 dubapoc2013-09-13_mk22mk4mix_1644_d2t06.wav
7:23.14 78178172 B --- -- ----- wav 1.0000 dubapoc2013-09-13_mk22mk4mix_1644_d2t07.wav
7:00.60 74229164 B --- -- ----- wav 1.0000 dubapoc2013-09-13_mk22mk4mix_1644_d2t08.wav
8:01.27 84911948 B --- -- ----- wav 1.0000 dubapoc2013-09-13_mk22mk4mix_1644_d2t09.wav
9:44.69 103179932 B --- -- ----- wav 1.0000 dubapoc2013-09-13_mk22mk4mix_1644_d2t10.wav
146:30.05 1550568508 B 1.0000 (17 files)

comment
Reviews

There are no reviews yet. Be the first one to write a review.
DOWNLOAD OPTIONS
Uploaded by
andyjah
on 9/21/2013
Views
84
Favorites
1
SIMILAR ITEMS (based on metadata)
eye
Title
Date Archived
Creator
Dub Apocalypse
by Dub Apocalypse
etree
eye 95
favorite 0
comment 0
Source: Schoeps MK22/MK4>Sonosax SX-R4
Dub Apocalypse
by Dub Apocalypse
etree
eye 68
favorite 0
comment 0
Source: Schoeps MK22/MK4/sb>Sonosax SX-R4
Dub Apocalypse
by Dub Apocalypse
etree
eye 67
favorite 0
comment 0
Source: Schoeps mk22/mk4/sb>Sonosax SX-R4
Dub Apocalypse
by Dub Apocalypse
etree
eye 108
favorite 0
comment 0
Source: Schoeps MK22/MK4/sb>Sonosax SX-R4
Dub Apocalypse
by Dub Apocalypse
etree
eye 113
favorite 0
comment 0
Source: Schoeps MK22/MK4/sb>Sonosax SX-R4
Dub Apocalypse
by Dub Apocalypse
etree
eye 77
favorite 0
comment 0
Source: Schoeps MK22/MK4/sb>Sonosax SX-R4
Dub Apocalypse
by Dub Apocalypse
etree
eye 85
favorite 0
comment 0
Source: Schoeps mk22/mk4/sb>Sonosax SX-R4
Dub Apocalypse
by Dub Apocalypse
etree
eye 102
favorite 3
comment 0
Source: Schoeps MK22/MK4/sb>Sonosax SX-R4
Dub Apocalypse
by Dub Apocalypse
etree
eye 150
favorite 0
comment 0
Source: akg ck1/a60/460>V3>R44
Dub Apocalypse
by Dub Apocalypse
etree
eye 63
favorite 0
comment 0
Source: Schoeps MK4>KC5>CMC6>Sonosax SX-M2>Apogee Mini-me(aes out,24bit/96khz)>COAX>Edirol R-44